SIBIU HOME  |   CONTACT  |   SERVICII  |   WEB DESIGN  |   WEB HOSTING  |   DIGITAL PHOTOGRAPHY  |   SEO (SEARCH ENGINE OPTIMIZATION)  |   INTERNET CONSULTING

Kagemusha 1980 720p subtitrat 1part/2part

Trebuie sa fie un film care te-a impresionat sau poate unu care nu ti-a placut deloc. Hai sa vedem ce parere au si ceilalti despre el.

Posts: 2048
Joined: 24.10.2006 14:53
PostPosted: 28.09.2014 13:07
1.



Kagemusha 1980 720p subtitrat 1part/2part

Image
title_kagemusha_blu-ray.jpg
(26.52 KiB) Not downloaded yet


Kagemusha (1980):
Wki.ro nu da infos

wiki.en:
http://en.wikipedia.org/wiki/Kagemusha

wiki.de
http://de.wikipedia.org/wiki/Kagemusha_%E2%80%93_Der_Schatten_des_Kriegers

wiki.fr
http://fr.wikipedia.org/wiki/Kagemusha,_l%27ombre_du_guerrier

wiki.it
http://it.wikipedia.org/wiki/Kagemusha_-_L%27ombra_del_guerriero

wiki.es
http://es.wikipedia.org/wiki/Kagemusha

wiki.ru
https://ru.wikipedia.org/wiki/%D0%A2%D0%B5%D0%BD%D1%8C_%D0%B2%D0%BE%D0%B8%D0%BD%D0%B0






The Case for Global Film
27 June 2000
Kagemusha (Japan 1980)

http://itpworld.wordpress.com/2000/06/27/kagemusha-japan-1980/





In secolul XVI Japonia era prada unui razboi intre diversele clanuri . Unul din acestea era si clanul Takeda , al carui sef , Shingen Takeda, visa sa cucereasca Kyoto si de aici sa cucereasca intreaga tara .Din nefericire a murit pe drumul spre castelul Noda. Agoniznd el le cere oamenilor lui de incredere sa-i ascunda moartea ,disimulnd-o inca 3 ani .Se iveste ocazia perfecta, caci un hot pe care-l cunoaste fratele lui Shingen Nobukado, seamana izbitor cu el. Nobukado il prezinta pe hot generalilor sai si le propune un plan pentru ca kagemusha sa tina locul lui Shingen Takeda . La intoarcerea in " castelul sau " kagemusha reuseste sa convinga concubinele lui Shingen si pe fiul sau ca seamana cu Shingen Takeda





Kagemusha 1980 720p subtitrat 1part/2part

sunt mai multe variante, alegeti prima, definitie 720p (1280p x 720p) impartita in 1part/2part respective CD1.720p/CD2 720p

http://hd720filmesiseriale.blogspot.de/2014/04/kagemusha-1980-online-subtitrat.html

Marimea la Download:

CD1. 720p 1101,61MB:



CD2. 720p 1109,4 MB:

Subtitrare:

In varianta 720p nu apare subtitrat...

In schimb am gasit aici mai multe variante, din pacate fara toate amanuntele necesare......

Tinem cont de:

25 Frames (FPS)
720p
CD1 CD2
Se pare ca nu este un 720p bluray, ci simplu H264 MP4
Dau aici info:

CD1:
Format : MPEG-4
Format profile : Base Media
Codec ID : isom
File size : 1.08 GiB
Duration : 1h 19mn
Overall bit rate : 1 934 Kbps
Writing application : Lavf54.59.106

Video
ID : 1
Format : AVC
Format/Info : Advanced Video Codec
Format profile : High@L3.1
Format settings, CABAC : Yes
Format settings, ReFrames : 4 frames
Codec ID : avc1
Codec ID/Info : Advanced Video Coding
Duration : 1h 19mn
Bit rate : 1 800 Kbps
Width : 1 280 pixels
Height : 720 pixels
Display aspect ratio : 16:9
Frame rate mode : Constant
Frame rate : 25.000 fps
Color space : YUV
Chroma subsampling : 4:2:0
Bit depth : 8 bits
Scan type : Progressive
Bits/(Pixel*Frame) : 0.078
Stream size : 1.00 GiB (93%)
Writing library : x264 core 129
Encoding settings : cabac=1 / ref=3 / deblock=1:0:0 / analyse=0x3:0x113 / me=hex / subme=7 / psy=1 / psy_rd=1.00:0.00 / mixed_ref=1 / me_range=16 / chroma_me=1 / trellis=1 / 8x8dct=1 / cqm=0 / deadzone=21,11 / fast_pskip=1 / chroma_qp_offset=-2 / threads=24 / lookahead_threads=4 / sliced_threads=0 / nr=0 / decimate=1 / interlaced=0 / bluray_compat=0 / constrained_intra=0 / bframes=3 / b_pyramid=2 / b_adapt=1 / b_bias=0 / direct=1 / weightb=1 / open_gop=0 / weightp=2 / keyint=250 / keyint_min=25 / scenecut=40 / intra_refresh=0 / rc_lookahead=40 / rc=abr / mbtree=1 / bitrate=1800 / ratetol=1.0 / qcomp=0.60 / qpmin=0 / qpmax=69 / qpstep=4 / ip_ratio=1.40 / aq=1:1.00

Audio
ID : 2
Format : AAC
Format/Info : Advanced Audio Codec
Format profile : LC
Codec ID : 40
Duration : 1h 19mn
Bit rate mode : Constant
Bit rate : 128 Kbps
Channel(s) : 2 channels
Channel positions : Front: L R
Sampling rate : 44.1 KHz
Compression mode : Lossy
Stream size : 72.9 MiB (7%)

CD2:
Format : MPEG-4
Format profile : Base Media
Codec ID : isom
File size : 1.08 GiB
Duration : 1h 19mn
Overall bit rate : 1 948 Kbps
Writing application : Lavf54.59.106

Video
ID : 1
Format : AVC
Format/Info : Advanced Video Codec
Format profile : High@L3.1
Format settings, CABAC : Yes
Format settings, ReFrames : 4 frames
Codec ID : avc1
Codec ID/Info : Advanced Video Coding
Duration : 1h 19mn
Bit rate : 1 800 Kbps
Width : 1 280 pixels
Height : 720 pixels
Display aspect ratio : 16:9
Frame rate mode : Constant
Frame rate : 25.000 fps
Color space : YUV
Chroma subsampling : 4:2:0
Bit depth : 8 bits
Scan type : Progressive
Bits/(Pixel*Frame) : 0.078
Stream size : 1.01 GiB (93%)
Writing library : x264 core 129
Encoding settings : cabac=1 / ref=3 / deblock=1:0:0 / analyse=0x3:0x113 / me=hex / subme=7 / psy=1 / psy_rd=1.00:0.00 / mixed_ref=1 / me_range=16 / chroma_me=1 / trellis=1 / 8x8dct=1 / cqm=0 / deadzone=21,11 / fast_pskip=1 / chroma_qp_offset=-2 / threads=24 / lookahead_threads=4 / sliced_threads=0 / nr=0 / decimate=1 / interlaced=0 / bluray_compat=0 / constrained_intra=0 / bframes=3 / b_pyramid=2 / b_adapt=1 / b_bias=0 / direct=1 / weightb=1 / open_gop=0 / weightp=2 / keyint=250 / keyint_min=25 / scenecut=40 / intra_refresh=0 / rc_lookahead=40 / rc=abr / mbtree=1 / bitrate=1800 / ratetol=1.0 / qcomp=0.60 / qpmin=0 / qpmax=69 / qpstep=4 / ip_ratio=1.40 / aq=1:1.00

Audio
ID : 2
Format : AAC
Format/Info : Advanced Audio Codec
Format profile : LC
Codec ID : 40
Duration : 1h 19mn
Bit rate mode : Constant
Bit rate : 128 Kbps
Channel(s) : 2 channels
Channel positions : Front: L R
Sampling rate : 44.1 KHz
Compression mode : Lossy
Stream size : 72.9 MiB (7%)

Deci aveti INFO cat am gasit si eu, necesara pentru adaugarea unei subtitrari corecte, dar, mai ales. titlul fiecarei CD sa aiba toate elementele identice cu cele alte titlului din subtitrarea de respectiva CD (inafara de terminatie (la CD -.mp4 sau -.avi ,la subtitrare -.srt; -.sub )apoi merge automat.

Repet criteriile de selectie:
25 Frames (FPS)
720p
Nr CD. 2=CD1+ CD2
Nr. CD: 2 Framerate: 25 FPS

Se pare ca nu este un 720p bluray, ci simplu H264 MP4

Subtitrari KAGEMUSHA 1980:

http://subtitrari.regielive.ro/kagemusha-1748/







Georg Schoenpflug von Gambsenberg

Return to Filme

Who is online

Users browsing this forum: No registered users and 1 guest

cron